#TITLE:The Kinslayer;
#SUBTITLE:;
#ARTIST:NightWish;
#TITLETRANSLIT:The Kinslayer;
#SUBTITLETRANSLIT:;
#ARTISTTRANSLIT:NightWish;
#CREDIT:Thu Bay , 20-12-2008;
#BANNER:The Kinslayer-bn.png;
#BACKGROUND:The Kinslayer-bg.png;
#LYRICSPATH:;
#CDTITLE:pm4cd.png;
#MUSIC:The Kinslayer.mp3;
#OFFSET:0.100;
#SAMPLESTART:53.000;
#SAMPLELENGTH:20.000;
#SELECTABLE:YES;
#BPMS:0.000=177.560;
#STOPS:;
#BGCHANGES:;
// cache tags:
#FIRSTBEAT:2.000;
#LASTBEAT:704.000;
#SONGFILENAME:Songs/Music V.I.P ^_^/The Kinslayer/The Kinslayer.sm;
#HASMUSIC:1;
#HASBANNER:1;
#MUSICLENGTH:238.464;
// end cache tags

//---------------dance-single - ----------------
#NOTES:
     dance-single:
     :
     Hard:
     16:
     1.000,1.000,1.000,0.063,0.270,1302.000,760.000,15.000,0.000,84.000:
0000
0000
0000
0000
1011
1011
0100
1000
,
0010
0001
1000
0100
0001
1000
0100
0011
,
1000
0100
0010
1000
0001
0100
1001
0100
,
0010
0001
1010
0100
0001
0010
1000
0100
,
1000
1101
1101
0010
0100
0010
0001
1000
,
0100
0001
1000
0100
0011
1000
0100
0010
,
1000
0001
0100
1010
0100
0010
0001
1010
,
0100
0001
1010
0000
0101
0000
1010
0111
,
0111
0100
1000
0010
0001
1000
0100
0001
,
1000
0100
0011
1000
0100
0010
1000
0001
,
0100
1001
0100
0010
0001
1010
0100
0001
,
0010
1000
0100
1000
1011
1011
0100
1000
,
0010
0001
1000
0100
0001
1000
0100
0011
,
1000
0100
0010
1000
0001
0010
1100
0010
,
0100
0001
0110
1000
0001
1010
0000
0101
,
0000
1010
1101
0010
0100
1010
0100
1000
,
0101
0000
1100
0000
0011
0000
1010
1000
,
0110
0000
0101
0010
0100
0011
0100
1000
,
0101
0000
1001
0000
0011
0100
1010
0001
,
1100
0001
0101
0010
0100
1001
0010
0100
,
0011
0000
1001
0000
0110
0000
1010
0010
,
0101
0000
0011
0100
1000
0101
0010
0100
,
1001
0000
0000
0000
1010
0000
0000
0010
0101
0000
1010
0000
0101
0000
0011
0000
,
1010
0110
2101
0010
0110
0001
0010
0010
,
0101
0000
0110
0000
0101
0000
0110
0100
,
0011
0000
0101
0010
0010
0100
0010
0100
,
0001
0000
3210
0000
0001
1000
2310
0001
,
0100
0011
3012
1000
1010
0100
1000
1000
,
0110
0000
1010
0000
1100
0000
1010
1000
,
0110
0000
0010
0100
1100
0010
0100
0100
,
1010
0000
0000
0000
0123
0000
0000
0100
1001
0000
0100
0000
1032
0000
0010
0000
,
1000
0110
1013
0100
1000
0100
0011
0100
,
1000
0100
0011
0100
1000
0100
0001
0010
,
0100
1000
0011
0100
1000
0100
0011
0100
,
1000
0100
0011
0100
1000
0100
1001
0100
,
0010
0001
0001
0010
1100
0010
0001
0010
,
1100
0010
0001
0010
1100
0010
0001
0100
,
1001
0010
0100
0010
1001
0010
0100
0010
,
1001
0010
0100
0010
0010
0010
0001
0100
,
0100
0100
1001
0010
1000
0100
1001
0010
,
1000
0000
0100
0000
1001
0000
0010
0000
1000
0000
0100
0000
1001
0000
0010
0100
,
1000
1000
0011
1000
0100
1000
0011
1000
,
0100
1000
0101
0010
0001
0100
1010
0100
,
0001
1000
0011
0100
1000
0010
0001
0100
,
1000
0000
0010
0000
0001
0000
0010
0000
1000
0000
0100
0000
0001
0000
0001
0010
,
0100
1000
0011
0010
1100
0100
0011
0010
,
1100
0000
0100
0000
1001
0000
0001
0010
1001
0000
1000
0000
0001
0000
0010
0000
,
0100
1000
0010
1000
0001
0100
0010
0100
,
0001
1000
0100
1000
0010
1000
0010
0100
,
0001
0100
1000
0100
0010
1000
0001
0100
,
0010
0100
0001
1000
0100
0001
0001
1000
,
0100
0010
1010
0100
0001
0100
0011
1000
,
0010
0100
0011
1000
0010
0100
1001
0100
,
1000
0010
0101
1000
0010
0100
0011
1000
,
0010
1000
0101
1000
1000
1000
0101
0010
,
0010
0010
1001
0010
0101
0010
1100
0010
,
0101
0010
1001
0010
0101
0010
1100
0010
,
0001
0001
1100
0010
0101
0010
1001
0010
,
0101
0010
1000
0100
1001
0010
1010
0100
,
1001
0100
0101
1000
1010
0100
1001
0010
,
1010
0100
0011
1000
1010
0100
1001
0010
,
1010
0101
0011
1000
1010
0100
1001
0010
,
1010
0000
0100
0000
1001
0010
0100
1000
0010
0100
1000
0010
1001
0010
1001
0100
,
1010
0100
1001
0100
1001
0000
0010
0000
0100
0000
0010
0000
0100
0000
1000
0000
,
0011
0000
1010
0000
1100
0000
1010
1000
,
0101
0000
1001
0010
1000
0001
0100
1000
,
0101
0000
0011
0000
0110
1000
0100
0011
,
1000
0101
1010
0100
1000
0001
0010
0100
,
1001
0000
0110
0000
1100
0000
0011
0100
,
1010
0000
1001
0010
0100
1000
0100
0010
,
0101
0000
1010
0000
0100
1000
0100
0001
,
1010
0011
1100
1100
0000
1100
1100
0000
,
1100
1100
0000
1100
1100
0000
1100
1100
,
0000
1100
1100
0000
1100
1100
0000
1100
,
1100
0000
1100
1100
0110
0000
1100
1100
,
0011
0000
0110
0110
0000
0110
0110
0000
,
0110
0110
0000
0110
0110
0000
0110
0110
,
1001
0110
0101
0101
0000
0101
0101
0000
,
0101
0101
0000
0011
0011
0000
0011
0011
,
0000
0011
0110
0110
0000
0110
0110
0000
,
0110
0110
0000
0110
0110
0000
0110
0110
,
0000
0110
1100
1100
0000
1100
1100
0000
,
1100
1100
0000
1011
0000
1011
0000
1011
,
0000
1011
0110
0110
0000
0110
0110
0000
,
0110
0110
0000
0110
0110
0000
0110
0110
,
1001
0110
0101
0101
0000
0101
0101
0000
,
0101
0101
0000
1010
0000
1010
0000
1010
,
0000
1010
0110
0110
0000
0110
0110
0000
,
0110
0110
0000
0110
0110
0000
0110
0110
,
1001
0110
0011
0011
0000
0011
0011
0000
,
0011
0011
0000
1101
0000
1101
0000
1101
,
0000
1101
2101
0010
0100
0001
0010
0100
,
0001
0010
0001
0100
0001
0100
3011
0100
,
0011
1000
1201
0010
1000
0001
0010
1000
,
0001
0010
0001
1000
0001
1000
0310
1001
,
1001
0010
1012
0100
1000
0010
0100
1000
,
0010
1000
0100
1000
0010
0100
0013
1000
,
0011
0000
1100
0000
0101
0000
1010
0000
0001
0100
0001
0100
1001
0000
1100
0000
,
0010
0001
0100
0010
1100
0000
0101
0000
1000
0001
0100
0010
1001
0000
0110
0000
,
0100
0001
1000
0010
1001
0000
0010
0000
1110
0000
0001
0000
0010
0000
0010
0000
,
0101
0010
1001
0010
1101
0010
1010
0000
,
0101
0000
1001
0010
1110
0001
0010
0010
,
1101
0000
0010
0000
0101
0000
0010
0000
1101
0000
0010
0000
0011
0000
0100
0010
,
1001
0100
1001
0100
0111
1000
0100
0100
,
1010
0100
1001
0100
1011
0100
1010
0100
,
1001
0010
1001
0100
0111
1000
0100
0100
,
1010
0000
0100
0000
1001
0001
0010
0100
1001
0010
0100
1000
0101
0010
1001
0100
,
1001
0100
0011
1000
0110
0000
0000
0000
1100
0000
1010
0000
0000
0000
0110
0000
,
0011
0000
1010
0000
1100
0000
1010
1000
,
0101
0000
1001
0000
1010
0101
0000
1001
,
0011
0000
1010
0000
0101
1010
0101
0011
,
1100
0000
0101
0000
1100
0011
1100
0011
1100
0000
0000
0000
1100
0011
1100
0011
,
1100
0000
0011
0000
0000
0000
1100
0011
1100
0000
0000
0000
1100
0011
1100
0011
,
1100
0000
1001
0000
0000
0000
1100
0011
1100
0000
0000
0000
1100
0011
1100
0011
,
1100
0000
0101
0000
0000
0000
1100
0011
1100
0000
0000
0000
1100
0011
1100
0000
,
0011
0000
1001
0000
1010
1100
0000
0011
,
0101
0000
1010
0000
0101
0000
1100
1000
,
0110
0000
1001
0000
0101
1010
0000
0110
,
1001
0000
0101
0000
0011
1100
0110
1001
,
0110
0000
1001
0000
1010
0101
1010
0101
1010
0000
0000
0000
1010
0101
1010
0101
,
1010
0000
0110
0000
0000
0000
1010
0101
1010
0000
0000
0000
1010
0101
1010
0101
,
1010
0000
1001
0000
0000
0000
1010
0101
1001
0000
0000
0000
1010
0101
1010
0110
,
1001
0000
0101
0000
0000
0000
0101
1010
0101
0000
0000
0000
0110
1001
0110
1001
,
0110
0110
0110
0110
0101
0000
0110
0000
1010
0000
0101
0000
1010
0000
1100
0000
,
1001
0110
1001
0101
1010
0110
1011
0000
,
0101
0000
1010
1001
0110
0101
1010
0110
,
1001
0110
0011
0110
0101
1010
1101
0000
,
0110
1001
0101
0110
1010
0101
0110
1010
,
0101
1010
0101
0110
1001
1010
1101
0000
,
1010
0000
1100
0110
1001
1010
0110
0101
,
1010
0000
0101
0000
1001
0010
0100
1000
0101
0010
0100
1000
0101
0010
0100
0010
,
1001
0100
0010
0100
1001
0000
0000
0000
1010
0000
0110
0000
0000
0000
0101
0000
,
1010
0000
1100
0000
0101
0000
1100
0010
,
0101
0000
1010
0000
1010
1100
0000
1100
,
0011
0000
0101
0000
0110
1010
1010
0101
,
0110
0000
1001
0000
1010
1010
0101
0101
1010
0000
0000
0000
1001
1001
0110
0110
,
1001
0000
1010
0000
0000
0000
1001
1001
0110
0000
0000
0000
0101
0101
1010
1010
,
0101
0000
1001
0000
0000
0000
0110
0110
1001
0000
0000
0000
0011
0011
1100
1100
,
0011
0000
0101
0000
0000
0000
1010
1010
0101
0000
0000
0000
0101
0101
1010
1010
,
0110
0110
1001
1001
0110
0000
0110
0000
0001
0000
0110
0000
0110
0000
0000
0000
,
1110
0110
0000
0110
0111
0000
0101
1010
,
0101
1010
0101
0101
0010
0101
0101
0000
,
1101
0101
0000
0011
1011
0000
0011
0011
,
0100
0011
0110
0110
0001
0110
0110
0000
,
1110
0110
0000
0110
0111
0000
0110
0110
,
1000
0110
1100
1100
0010
1100
1100
0000
,
1101
1100
0000
1011
0000
1011
0000
1011
,
0000
1011
0110
0110
1000
0110
0110
0000
,
0111
0110
0000
0110
1110
0000
0101
1010
,
0101
1010
0101
0101
0010
0101
0101
0000
,
1101
0101
0000
1010
0001
1010
0000
1010
,
0001
1010
0110
0110
1000
0110
0110
0000
,
0111
0110
0000
0110
1110
0000
0110
0110
,
1001
0110
0011
0011
1000
0011
0011
0000
,
0111
1001
0000
1101
0000
1101
0000
1101
,
0000
0000
1101
0000
0101
0010
1001
0010
0101
0000
0000
0000
1001
0010
1001
0100
,
1010
0000
0000
0000
1010
0100
1001
0010
1100
0000
0000
0000
0101
0010
1001
0100
,
0011
0000
0000
0000
0011
0100
1001
0010
1100
0000
0000
0000
0101
0010
1001
0001
,
1100
0000
0000
0000
1010
0100
1001
0010
0110
0000
0000
0000
1001
0000
0000
0000
,
1010
0000
0000
0000
1001
0100
1010
0010
0101
0000
0000
0000
0011
0100
1010
0001
,
1010
0000
0000
0000
1001
0100
1010
0001
0110
0000
0000
0000
0011
0010
0101
1000
,
0101
0000
0000
0000
0110
1000
0101
0010
1001
0000
0000
0000
0101
1000
0110
0001
,
1100
0000
0000
0000
0011
0100
1010
0000
1010
0000
1010
0000
0100
0000
1001
0000
,
1001
0000
1001
0000
0110
0000
1001
0100
1001
0000
0110
0001
1010
0000
1001
0100
,
1010
0000
1100
0010
0101
0000
1010
0100
0011
0000
1001
0100
1010
0000
0101
1000
,
0011
0000
0011
0000
1001
0000
1010
0100
0011
0000
0101
1000
1010
0000
0101
0010
,
1001
0000
0110
1000
1012
0000
0000
0000
1110
0000
0100
0000
2103
0000
0000
0000
,
0111
0000
0010
0000
3011
0000
0110
1000
0101
0000
1010
0100
0011
0000
1100
0010
,
0011
0000
1001
0010
1100
0000
1010
1000
0101
0000
1010
0010
0101
0000
1001
0001
,
1010
0000
1001
0000
0110
0000
0101
0100
1010
0000
0110
0010
1001
0000
0011
0010
,
1100
0000
0110
0100
1001
0000
0110
0000
1001
0000
1010
0000
0101
0000
0110
0000
,
1010
1100
2222
0000
0000
0000
0000
0000
,
0000
0000
0000
0000
,
0000
0000
0000
0000
,
3003
0000
0000
0000
,
0000
0000
0000
0000
,
0330
0000
0000
0000
;
